Roku Developer Program

Developers and content creators—a complete solution for growing an audience directly.
cancel
Showing results for 
Show  only  | Search instead for 
Did you mean: 
Highlighted
Level 7

still no sound with http live streaming please help

this is one of the filehttp://www.megaupload.com/?d=KWT7H6MX

General
ID : 1
Complete name : D:\Users\Zhiqiang Wang\Desktop\tsmuxer.split.5.ts
Format : MPEG-TS
File size : 2.97 MiB
Duration : 9s 502ms
Overall bit rate : 2 575 Kbps
Maximum Overall bit rate : 35.5 Mbps

Video
ID : 4113 (0x1011)
Menu ID : 1 (0x1)
Format : AVC
Format/Info : Advanced Video Codec
Format profile : Main@L4.0
Format settings, CABAC : Yes
Format settings, ReFrames : 4 frames
Duration : 9s 526ms
Bit rate mode : Variable
Bit rate : 2 205 Kbps
Maximum bit rate : 20.0 Mbps
Width : 1 280 pixels
Height : 720 pixels
Display aspect ratio : 16:9
Frame rate : 59.940 fps
Resolution : 8 bits
Colorimetry : 4:2:0
Scan type : Progressive
Bits/(Pixel*Frame) : 0.040
Stream size : 2.50 MiB (84%)
Color primaries : BT.709-5, BT.1361, IEC 61966-2-4, SMPTE RP177
Transfer characteristics : BT.709-5, BT.1361
Matrix coefficients : BT.709-5, BT.1361, IEC 61966-2-4 709, SMPTE RP177

Audio
ID : 4352 (0x1100)
Menu ID : 1 (0x1)
Format : AC-3
Format/Info : Audio Coding 3
Format_Settings_ModeExtension : CM (complete main)
Duration : 9s 568ms
Bit rate mode : Constant
Bit rate : 192 Kbps
Channel(s) : 2 channels
Channel positions : Front: L R
Sampling rate : 48.0 KHz
Video delay : -41ms
Stream size : 224 KiB (7%)
0 Kudos
2 Replies
Highlighted
Level 8

Re: still no sound with http live streaming please help

How do you have the audio outputs on the box connected? I ask because we do not do AC-3 decoding, so you'd need to connect the HDMI or Optical out to an external decoder.
0 Kudos
Highlighted
Level 8

Re: still no sound with http live streaming please help

Just confirmed with Engineering that we only support AAC (LC) in HLS.
0 Kudos