Roku Developer Program

Developers and content creators—a complete solution for growing an audience directly.
cancel
Showing results for 
Search instead for 
Did you mean: 
hugetv
Level 7

Help with dual audio mkv file

Help since I do not hear the audio I have problem and when changing the audio you get out of the video

    Stream #0:1(lat): Audio: ac3, 44100 Hz, 5.1(side), fltp, 320 kb/s (default)
    Metadata:
      BPS             : 320000
      BPS-eng         : 320000
      DURATION        : 01:55:30.982000000
      DURATION-eng    : 01:55:30.982000000
      NUMBER_OF_FRAMES: 198995
      NUMBER_OF_FRAMES-eng: 198995
      NUMBER_OF_BYTES : 277239292
      NUMBER_OF_BYTES-eng: 277239292
      _STATISTICS_WRITING_APP: mkvmerge v7.8.0 ('River Man') 32bit built on Mar                                                                                                                                                              27 2015 16:18:02
      _STATISTICS_WRITING_APP-eng: mkvmerge v7.8.0 ('River Man') 32bit built on                                                                                                                                                              Mar 27 2015 16:18:02
      _STATISTICS_WRITING_DATE_UTC: 2017-03-14 01:51:55
      _STATISTICS_WRITING_DATE_UTC-eng: 2017-03-14 01:51:55
      _STATISTICS_TAGS: BPS DURATION NUMBER_OF_FRAMES NUMBER_OF_BYTES
      _STATISTICS_TAGS-eng: BPS DURATION NUMBER_OF_FRAMES NUMBER_OF_BYTES
    Stream #0:2(eng): Audio: ac3, 48000 Hz, 5.1(side), fltp, 320 kb/s
    Metadata:
      BPS             : 320000
      BPS-eng         : 320000
      DURATION        : 01:55:30.976000000
      DURATION-eng    : 01:55:30.976000000
      NUMBER_OF_FRAMES: 216593
      NUMBER_OF_FRAMES-eng: 216593
      NUMBER_OF_BYTES : 277239040
      NUMBER_OF_BYTES-eng: 277239040
      _STATISTICS_WRITING_APP: mkvmerge v7.8.0 ('River Man') 32bit built on Mar                                                                                                                                                              27 2015 16:18:02
      _STATISTICS_WRITING_APP-eng: mkvmerge v7.8.0 ('River Man') 32bit built on                                                                                                                                                              Mar 27 2015 16:18:02

Our system http://www.rokumanager.com
0 Kudos