Channel Issues & Questions

Help & troubleshooting for channels on your Roku device, including adding/removing channels, logging in to, authenticating, or activating a channel, channel-specific playback issues, assistance contacting channel publishers to report issues, and adjusting channel-specific settings.
cancel
Showing results for 
Show  only  | Search instead for 
Did you mean: 
dathead2
Level 10

Roku Media Player woes are back

RMP is eating several seconds of audio between flac tracks again. Oddly seems as though it’s clipping 1-2 secs off both end of prev track AND beginning of next track (used to just be beginning of next track)
 

oh well compared to the major problems everybody else is having I can live with it just is a drag because was fixed in RokuOS 10.5.0 build 4208 (build 4210 broke a lot and I was auto downgraded back to 4208)

now I’m at software-version>11.0.0 software-build>4193 5.5.13>Roku Media Player

info in my signature is old 

Roku Ultra 4660X
software-version 11.0.0
software-build 4193
Roku Media Player 5.5.13
0 Kudos
1 REPLY 1\
t0mg
Level 7

Re: Roku Media Player woes are back

I cannot get the roku media player to play any H264/MP4 container files. These files are verified chromecast compatible.  Sample problem file:

Input #0, mov,mp4,m4a,3gp,3g2,mj2, from 'Liminanas.mp4':
Metadata:
major_brand : isom
minor_version : 512
compatible_brands: isomiso2avc1mp41
encoder : Lavf58.76.100
Duration: 00:55:20.94, start: 0.000000, bitrate: 3783 kb/s
Stream #0:0(und): Video: h264 (High) (avc1 / 0x31637661), yuv420p(tv, bt709), 1920x1080 [SAR 1:1 DAR 16:9], 3649 kb/s, 25 fps, 25 tbr, 12800 tbn, 50 tbc (default)
Metadata:
handler_name : ISO Media file produced by Google Inc.
vendor_id : [0][0][0][0]
Stream #0:1(und): Audio: aac (LC) (mp4a / 0x6134706D), 44100 Hz, stereo, fltp, 128 kb/s (default)
Metadata:
handler_name : ISO Media file produced by Google Inc.
vendor_id : [0][0][0][0]

0 Kudos