Roku Developer Program

Developers and content creators—a complete solution for growing an audience directly.
cancel
Showing results for 
Show  only  | Search instead for 
Did you mean: 
ncognito66
Level 7

Video request failure.....

I'm receiving a failure and not sure why. Can anyone see the problem here?


General
Complete name : E:\!Web Pages\Country Dreams\roku\shows\HUC\Do_It_Again_-_Johanna_Jacobsen.mp4
Format : MPEG-4
Format profile : Base Media / Version 2
Codec ID : mp42
File size : 23.6 MiB
Duration : 3mn 25s
Overall bit rate mode : Variable
Overall bit rate : 964 Kbps
Encoded date : UTC 2012-02-11 16:51:03
Tagged date : UTC 2012-02-11 16:51:03
Writing application : mp4creator 1.4.4

Video
ID : 1
Format : AVC
Format/Info : Advanced Video Codec
Format profile : Baseline@L1.3
Format settings, CABAC : No
Format settings, ReFrames : 2 frames
Codec ID : avc1
Codec ID/Info : Advanced Video Coding
Duration : 3mn 25s
Bit rate mode : Variable
Bit rate : 772 Kbps
Width : 720 pixels
Height : 480 pixels
Display aspect ratio : 3:2
Frame rate mode : Constant
Frame rate : 25.000 fps
Standard : NTSC
Color space : YUV
Chroma subsampling : 4:2:0
Bit depth : 8 bits
Scan type : Progressive
Bits/(Pixel*Frame) : 0.089
Stream size : 18.9 MiB (80%)
Language : English
Encoded date : UTC 2012-02-11 16:51:03
Tagged date : UTC 2012-02-11 16:51:03

Audio
ID : 2
Format : AAC
Format/Info : Advanced Audio Codec
Format profile : LC
Codec ID : 40
Duration : 3mn 25s
Source duration : 3mn 25s
Bit rate mode : Variable
Bit rate : 192 Kbps
Maximum bit rate : 211 Kbps
Channel(s) : 2 channels
Channel positions : Front: L R
Sampling rate : 44.1 KHz
Compression mode : Lossy
Stream size : 4.64 MiB (20%)
Source stream size : 4.64 MiB
Language : English
Encoded date : UTC 2012-02-11 16:51:03
Tagged date : UTC 2012-02-11 16:51:03
Al
Creator, Producer, and Co-Host - Country Dreams radio show
http://www.countrydreamsradio.com
Founder - Independent Country Music Association
http://www.icmanet.com
Station Engineer - WBTN 1370 AM
http://www.wbtnam.org
0 Kudos