Playback Issues - Audio/Video & Power

Help with audio & video playback issues, TV display type recognition & compatibility, HDCP messages, troubleshooting playback errors, advertisements, and resolving power issues.
cancel
Showing results for 
Show  only  | Search instead for 
Did you mean: 
Highlighted
Level 7

Video Stuttering (from a specific source)

I'm struggling with videos from a particular source stuttering enough to make them unwatchable. I watch through Plex Media, but I've also tried watching the video through the Roku Media Player and I get the same result, so this seem to be a disagreement between the video's encoding and the Roku Ultra itself.

My Roku is fully updated and otherwise works. It can handle 4K video and higher bitrate video, so it's definitely not a bandwidth problem.

Here's the info about the video. I'm hoping someone can tell me what the cause might be so that I can re-encode the video to make it play more smoothly

General
Complete name                  : \\Servername\Video Name - [1080p].mp4
Format                         : MPEG-4
Format profile                 : Base Media
Codec ID                       : isom
File size                      : 602 MiB
Duration                       : 11mn 48s
Overall bit rate mode          : Variable
Overall bit rate               : 7 120 Kbps
Writing application            : Lavf56.40.101

Video
ID                             : 1
Format                         : AVC
Format/Info                    : Advanced Video Codec
Format profile                 : High@L4
Format settings, CABAC         : Yes
Format settings, ReFrames      : 2 frames
Codec ID                       : avc1
Codec ID/Info                  : Advanced Video Coding
Duration                       : 11mn 48s
Bit rate mode                  : Variable
Bit rate                       : 6 985 Kbps
Maximum bit rate               : 768 Kbps
Width                          : 1 920 pixels
Height                         : 1 080 pixels
Display aspect ratio           : 16:9
Frame rate mode                : Constant
Frame rate                     : 29.970 fps
Original frame rate            : 25.000 fps
Color space                    : YUV
Chroma subsampling             : 4:2:0
Bit depth                      : 8 bits
Scan type                      : Progressive
Bits/(Pixel*Frame)             : 0.112
Stream size                    : 590 MiB (98%)
Color range                    : Limited
Color primaries                : BT.709
Transfer characteristics       : BT.709
Matrix coefficients            : BT.709

Audio
ID                             : 2
Format                         : AAC
Format/Info                    : Advanced Audio Codec
Format profile                 : LC
Codec ID                       : 40
Duration                       : 11mn 48s
Bit rate mode                  : Variable
Bit rate                       : 128 Kbps
Channel(s)                     : 2 channels
Channel positions              : Front: L R
Sampling rate                  : 44.1 KHz
Compression mode               : Lossy
Stream size                    : 10.7 MiB (2%)
Language                       : English

0 Kudos