Channel Issues & Questions

Help & troubleshooting for channels on your Roku device, including adding/removing channels, logging in to, authenticating, or activating a channel, channel-specific playback issues, assistance contacting channel publishers to report issues, and adjusting channel-specific settings.
cancel
Showing results for 
Search instead for 
Did you mean: 
RokuDale
Level 8

Re: Roku Media Player 4.1.1541 released

 Some Roku devices are not able to rotate these portrait side-ways videos during playback. In order to restore the ability to FF/REW/RESUME video playback RMP needed to choose the original file to playback instead of always picking the transcoded one. I'll file an enhancement request to provide a way for the user to control this.
0 Kudos
rockou
Level 8

Re: Roku Media Player 4.1.1541 released

That would be nice if we could have that setting and others too.
4K HDR TV: Samsung UN60KS8000
4K HDR Receiver: Yamaha RX-V381
4K HDR blu ray: Samsung UBD-K8500
4K HDR streamer: Roku Ultra 4640 (2016 model)
4K HDR Gaming: Xbox One X
4K HDR DVR: Directv Genie HS17-500 w/ C61K mini client
Cables: Amazon Basics 18Gbps HDMI
0 Kudos
Highlighted
CV27
Level 7

Re: Roku Media Player 4.1.1541 released

"rockou" wrote:
My .AVI files work again and also video from iphones or ipads are turned correctly now again (last version had them upside down)

I'm new to the Roku world.  I have the Premiere+ (7.7.0).  I was under the impression that .AVI was not supported natively and have verified that that is the case for me unless transcoded upstream.
So, I'm interested in your statement "My .AVI files work again ".  Can you provide details?
0 Kudos
tvquecom
Level 7

Re: Roku Media Player 4.1.1541 released

can Roku play webm file of type  vp8 + opus  or h264 +opus

Input #0, matroska,webm,
Stream #0:0(eng): Audio: opus, 48000 Hz, stereo, fltp (default)
Stream #0:1(eng): Video: h264 (Constrained Baseline), yuv420p(progressive),

or
Input #0, matroska,webm
    Stream #0:0(eng): Video: vp8, yuv420p(progressive)

Also what should be the streamformat for webm files? if you can point me to some webm file which can play on Roku that would be great, any sample code would also be helpful

Thanks
0 Kudos